Tenet.2020.HC.HDCam.XviD.B4ND1T69

seeders:
leechers:
updated:
Added by B4ND1T69 in TV
Torrent verified.

Description

Tenet.2020.HC.HDCam.XviD.B4ND1T69

Director: Christopher Nolan
Writer: Christopher Nolan
Stars: John David Washington, Robert Pattinson, Elizabeth Debicki

Plot/Story:
Armed with only one word, Tenet, and fighting for the survival of the entire world, a Protagonist journeys through a twilight world of international espionage on a mission that will unfold in something beyond real time.

Notes:
Took the print that's out, reset the AR, reduced flicker and noise, re-balanced colours, brightness, contrast, blurred out site logo, sharpened image throughout, 3 samples included..enjoy.

General
Complete name               : Tenet.2020.HC.HDCam.XviD.B4ND1T69.avi
Format                      : AVI
Format/Info                 : Audio Video Interleave
File size                   : 1.70 GiB
Duration                    : 2 h 24 min
Overall bit rate            : 1 684 kb/s
Subtitles                   : Hardcoded Korean at times.
Samples                     : Yes...(3)

Video
ID                          : 0
Format                      : MPEG-4 Visual
Format profile              : Advanced [email protected]
Format settings, BVOP       : 2
Format settings, QPel       : No
Format settings, GMC        : No warppoints
Format settings, Matrix     : Default (H.263)
Codec ID                    : XVID
Codec ID/Hint               : XviD
Duration                    : 2 h 24 min
Bit rate                    : 1 542 kb/s
Width                       : 720 pixels
Height                      : 256 pixels
Display aspect ratio        : 2.813
Frame rate                  : 29.970 (30000/1001) FPS
Color space                 : YUV
Chroma subsampling          : 4:2:0
Bit depth                   : 8 bits
Scan type                   : Progressive
Compression mode            : Lossy
Bits/(Pixel*Frame)          : 0.279
Stream size                 : 1.55 GiB (92%)
Writing library             : XviD 64

Audio
ID                          : 1
Format                      : MPEG Audio
Format version              : Version 1
Format profile              : Layer 3
Codec ID                    : 55
Codec ID/Hint               : MP3
Duration                    : 2 h 24 min
Bit rate mode               : Constant
Bit rate                    : 128 kb/s
Channel(s)                  : 2 channels
Sampling rate               : 48.0 kHz
Compression mode            : Lossy
Stream size                 : 132 MiB (8%)
Alignment                   : Aligned on interleaves
Interleave, duration        : 24  ms (0.72 video frame)

Screenshots:
https://i.ibb.co/hg8bG4g/Tenet-1.png
https://i.ibb.co/Yt5Wrxk/Tenet-2.png
https://i.ibb.co/xz4pjK6/Tenet-3.png
https://i.ibb.co/ZSXLjC1/Tenet-4.png
https://i.ibb.co/b1C2C93/Tenet-5.png
https://i.ibb.co/S5TZ1Q7/Tenet-6.png
https://i.ibb.co/Z69QFbH/Tenet-7.png
https://i.ibb.co/7tVXwv9/Tenet-8.png

Please Seed For As Long As Possible
Or At Least 1:1 Ratio...Thanks
Enjoy Peeps

Sharing Widget


Download torrent
seeders:
leechers:
Tenet.2020.HC.HDCam.XviD.B4ND1T69



To share this torrent use the code below and insert it into comments, status messages, forum posts or your signature.

Torrent: Tenet.2020.HC.HDCam.XviD.B4ND1T69

Trackers

tracker name
udp://tracker.coppersurfer.tk:6969/announce
udp://9.rarbg.me:2710/announce
udp://p4p.arenabg.ch:1337/announce
udp://tracker.leechers-paradise.org:6969/announce
udp://eddie4.nl:6969/announce
udp://thetracker.org:80/announce
udp://tracker.coppersurfer.tk:6969
udp://explodie.org:6969/announce
udp://tracker.aletorrenty.pl:2710/announce
udp://9.rarbg.to:2710/announce
udp://torrent.gresille.org:80/announce
udp://tracker.opentrackr.org:1337/announce
udp://tracker.piratepublic.com:1337/announce
udp://tracker.sktorrent.net:6969/announce
udp://zer0day.ch:1337/announce
??Torrent compatible trackers list

Locations

name
KickassTorrents
Torrent hash: FBB50FFEA12F94B2EEC152093881394A7E46BAF4

All Comments

audio
0/10
video
0/10
please, leave only comments related to that torrent
Sign In

Report a bug Open chat